<?xml version="1.0" encoding="UTF-8" standalone="no"?>
<svg xmlns:inkscape="http://www.inkscape.org/namespaces/inkscape" xmlns:sodipodi="http://sodipodi.sourceforge.net/DTD/sodipodi-0.dtd" xmlns="http://www.w3.org/2000/svg" xmlns:svg="http://www.w3.org/2000/svg" version="1.2" width="11mm" height="6.1999998mm" viewBox="0 895 1100.0001 619.99998" preserveAspectRatio="xMidYMid" fill-rule="evenodd" stroke-width="28.222" stroke-linejoin="round" xml:space="preserve" id="svg48">
 <defs id="defs23">
  <font id="EmbeddedFont_1" vert-origin-x="512" vert-origin-y="768" vert-adv-y="1024">
   
   
   <glyph unicode="y" d="M 727,-2 C 683,-143 612,-251 513,-327 414,-402 281,-445 115,-455 L 80,-227 C 184,-214 260,-190 310,-158 360,-125 400,-72 430,0 L 319,0 -12,1087 332,1087 526,207 739,1087 1073,1087 727,-2 Z " id="glyph1"></glyph>
   <glyph unicode="x" d="M 719,582 L 1069,0 702,0 514,408 330,0 -23,0 328,571 12,1087 375,1087 526,739 672,1087 1016,1087 719,582 Z " id="glyph2"></glyph>
   <glyph unicode="v" d="M 1063,1087 L 721,0 338,0 -12,1087 340,1087 532,246 733,1087 1063,1087 Z " id="glyph3"></glyph>
   <glyph unicode="u" d="M 1044,0 L 764,0 750,137 C 670,23 560,-35 420,-35 320,-35 245,-5 194,55 142,115 117,199 117,307 L 117,1087 440,1087 440,348 C 440,295 449,258 466,237 483,215 509,205 545,205 613,205 672,247 721,332 L 721,1087 1044,1087 1044,0 Z " id="glyph4"></glyph>
   <glyph unicode="t" d="M 809,51 C 769,24 723,3 671,-12 618,-27 566,-35 514,-35 276,-33 158,98 158,358 L 158,862 4,862 4,1087 158,1087 158,1323 481,1360 481,1087 731,1087 696,862 481,862 481,363 C 481,312 489,276 506,254 522,232 548,221 584,221 621,221 659,233 700,256 L 809,51 Z " id="glyph5"></glyph>
   <glyph unicode="s" d="M 510,1122 C 588,1122 661,1111 729,1087 797,1064 857,1032 909,989 L 791,807 C 702,863 612,891 522,891 480,891 447,884 425,869 402,855 391,835 391,809 391,788 396,772 407,759 417,746 438,733 469,719 500,705 549,689 614,670 728,637 812,594 867,542 923,489 950,416 950,324 950,250 929,186 887,132 844,78 786,37 713,8 639,-20 557,-35 467,-35 375,-35 290,-20 212,8 133,37 67,76 12,127 L 170,303 C 261,232 358,197 459,197 508,197 546,205 574,223 602,241 616,266 616,299 616,325 611,345 600,360 589,375 568,389 537,402 505,415 455,431 387,451 279,482 199,526 145,582 92,638 66,707 66,791 66,853 84,910 120,959 156,1009 208,1049 275,1078 343,1108 421,1122 510,1122 Z " id="glyph6"></glyph>
   <glyph unicode="r" d="M 717,1118 C 756,1118 793,1113 825,1104 L 774,791 C 733,800 700,805 676,805 612,805 563,783 529,738 496,694 470,627 451,539 L 451,0 127,0 127,1087 410,1087 436,877 C 461,952 498,1011 548,1054 598,1097 654,1118 717,1118 Z " id="glyph7"></glyph>
   <glyph unicode="p" d="M 741,1122 C 878,1122 980,1072 1047,971 1113,870 1147,728 1147,547 1147,435 1129,335 1095,247 1060,159 1010,90 944,40 879,-10 802,-35 715,-35 606,-35 517,3 451,78 L 451,-420 127,-455 127,1087 412,1087 428,967 C 470,1020 519,1059 573,1084 628,1110 684,1122 741,1122 Z M 616,203 C 746,203 811,316 811,543 811,671 797,760 768,810 739,860 696,885 639,885 602,885 568,874 536,852 503,830 475,799 451,758 L 451,299 C 494,235 550,203 616,203 Z " id="glyph8"></glyph>
   <glyph unicode="o" d="M 598,1122 C 765,1122 895,1071 989,970 1083,868 1131,726 1131,543 1131,427 1109,325 1066,239 1023,152 962,85 882,37 802,-11 707,-35 598,-35 433,-35 303,16 208,118 113,219 66,362 66,545 66,661 87,762 130,849 173,936 234,1003 314,1051 394,1098 489,1122 598,1122 Z M 598,885 C 532,885 483,857 451,802 418,746 401,661 401,545 401,426 417,339 450,285 482,230 531,203 598,203 664,203 713,230 745,286 778,341 795,427 795,543 795,662 779,748 747,803 714,857 665,885 598,885 Z " id="glyph9"></glyph>
   <glyph unicode="n" d="M 764,1122 C 858,1122 932,1094 985,1036 1038,979 1065,898 1065,795 L 1065,0 741,0 741,739 C 741,794 733,832 716,853 699,874 673,885 639,885 573,885 511,838 451,743 L 451,0 127,0 127,1087 410,1087 432,958 C 479,1013 529,1054 583,1081 637,1109 697,1122 764,1122 Z " id="glyph10"></glyph>
   <glyph unicode="i" d="M 451,1087 L 451,0 127,0 127,1087 451,1087 Z M 287,1661 C 343,1661 389,1644 425,1609 461,1574 479,1530 479,1477 479,1423 461,1379 425,1345 389,1310 343,1292 287,1292 231,1292 185,1310 150,1345 114,1379 96,1423 96,1477 96,1530 114,1574 150,1609 185,1644 231,1661 287,1661 Z " id="glyph11"></glyph>
   <glyph unicode="e" d="M 1075,565 C 1075,520 1073,481 1069,449 L 395,449 C 406,357 432,293 473,256 514,219 571,201 643,201 687,201 729,209 770,224 811,240 855,264 903,297 L 1036,117 C 909,16 768,-35 612,-35 436,-35 301,17 207,121 113,225 66,364 66,539 66,649 85,749 125,837 165,925 223,994 299,1046 375,1097 467,1122 573,1122 730,1122 853,1073 942,975 1031,877 1075,740 1075,565 Z M 758,657 C 755,824 696,907 582,907 526,907 482,887 452,846 421,805 402,737 395,643 L 758,643 758,657 Z " id="glyph12"></glyph>
   <glyph unicode="d" d="M 1102,1520 L 1102,0 815,0 799,127 C 722,19 619,-35 489,-35 354,-35 252,17 181,121 111,225 76,367 76,547 76,657 94,756 131,844 168,931 220,999 288,1049 355,1098 433,1122 520,1122 624,1122 710,1088 778,1020 L 778,1554 1102,1520 Z M 590,203 C 665,203 728,244 778,326 L 778,795 C 752,826 726,849 699,864 673,879 642,887 608,887 548,887 500,859 465,803 429,747 412,661 412,545 412,418 427,329 458,279 488,228 532,203 590,203 Z " id="glyph13"></glyph>
   <glyph unicode="c" d="M 598,1122 C 673,1122 741,1111 801,1090 861,1068 918,1034 971,989 L 831,797 C 763,849 694,875 625,875 552,875 498,848 461,795 424,741 406,655 406,537 406,422 424,341 461,293 498,245 551,221 621,221 657,221 691,227 721,239 751,250 787,269 829,295 L 971,94 C 863,8 741,-35 604,-35 494,-35 398,-11 317,36 237,83 175,149 131,235 87,320 66,420 66,535 66,649 87,751 131,840 175,928 237,998 317,1048 398,1097 492,1122 598,1122 Z " id="glyph14"></glyph>
   <glyph unicode="a" d="M 991,315 C 991,274 997,244 1009,225 1020,206 1039,192 1065,182 L 997,-29 C 930,-23 876,-9 834,15 791,39 758,77 735,129 664,20 555,-35 408,-35 300,-35 214,-3 150,59 85,122 53,204 53,305 53,424 97,515 184,578 272,640 398,672 563,672 L 674,672 674,719 C 674,783 660,827 633,851 606,875 558,887 489,887 454,887 411,882 360,871 310,861 258,847 205,829 L 131,1042 C 199,1068 269,1088 341,1102 413,1115 479,1122 541,1122 696,1122 810,1090 883,1026 955,962 991,866 991,737 L 991,315 Z M 502,197 C 575,197 633,231 674,301 L 674,494 594,494 C 520,494 465,481 429,455 393,429 375,388 375,334 375,290 386,256 409,232 431,209 462,197 502,197 Z " id="glyph15"></glyph>
   <glyph unicode="S" d="M 590,1454 C 696,1454 789,1439 867,1409 946,1379 1017,1333 1081,1272 L 926,1090 C 829,1169 725,1208 614,1208 556,1208 509,1196 475,1172 441,1149 424,1114 424,1069 424,1038 431,1012 446,992 461,972 488,954 526,936 565,918 622,897 698,872 843,826 950,769 1018,701 1086,634 1120,538 1120,414 1120,325 1098,247 1053,179 1008,112 943,59 858,22 773,-16 673,-35 557,-35 441,-35 338,-16 249,20 159,57 83,107 18,168 L 188,354 C 243,308 299,273 357,250 415,227 479,215 547,215 616,215 671,230 712,261 752,292 772,335 772,389 772,425 765,454 750,478 735,502 709,524 672,543 635,562 582,582 512,604 355,652 243,711 177,780 111,850 78,938 78,1044 78,1126 100,1198 143,1261 187,1323 248,1370 326,1404 403,1437 492,1454 590,1454 Z " id="glyph16"></glyph>
   <glyph unicode="R" d="M 600,543 L 469,543 469,0 133,0 133,1419 598,1419 C 792,1419 938,1384 1035,1313 1133,1242 1182,1133 1182,987 1182,896 1160,820 1116,759 1072,698 1004,646 909,604 L 1270,0 891,0 600,543 Z M 469,774 L 610,774 C 685,774 742,791 779,825 817,859 836,913 836,987 836,1055 815,1105 775,1137 735,1168 673,1184 590,1184 L 469,1184 469,774 Z " id="glyph17"></glyph>
   <glyph unicode="I" d="M 469,1419 L 469,0 133,0 133,1419 469,1419 Z " id="glyph18"></glyph>
   <glyph unicode="E" d="M 1004,1419 L 969,1180 469,1180 469,840 905,840 905,604 469,604 469,242 1004,242 1004,0 133,0 133,1419 1004,1419 Z " id="glyph19"></glyph>
   <glyph unicode="." d="M 246,336 C 296,336 340,318 376,282 412,245 430,202 430,152 430,100 412,56 376,19 340,-17 296,-35 246,-35 194,-35 150,-17 114,19 77,56 59,100 59,152 59,202 77,245 114,282 150,318 194,336 246,336 Z " id="glyph20"></glyph>
   <glyph unicode="," d="M 246,336 C 298,336 341,318 377,283 412,247 430,203 430,152 430,122 425,91 416,61 406,31 389,-11 365,-66 L 236,-363 53,-363 141,-2 C 115,16 95,38 81,65 67,91 59,120 59,152 59,203 77,247 113,283 148,318 193,336 246,336 Z " id="glyph21"></glyph>
   <glyph unicode="&amp;" d="M 641,1454 C 731,1454 809,1440 876,1411 942,1382 992,1343 1027,1294 1062,1245 1079,1189 1079,1126 1079,1046 1056,976 1011,916 965,857 898,798 809,739 L 1085,479 C 1125,561 1158,659 1184,774 L 1454,694 C 1402,544 1339,417 1266,313 L 1513,94 1237,-35 1077,119 C 950,16 801,-35 629,-35 529,-35 441,-18 365,14 288,47 229,94 186,154 144,214 123,283 123,363 123,444 145,516 189,578 234,639 304,701 399,764 326,835 274,895 246,945 217,995 203,1051 203,1114 203,1176 219,1232 252,1283 285,1334 334,1376 400,1407 467,1438 547,1454 641,1454 Z M 645,1245 C 604,1245 572,1233 549,1209 526,1185 514,1154 514,1114 514,1079 523,1047 540,1018 557,989 587,953 631,909 679,941 714,973 736,1006 759,1038 770,1076 770,1118 770,1158 759,1189 736,1211 714,1234 683,1245 645,1245 Z M 584,590 C 541,558 510,526 490,493 471,459 461,422 461,381 461,325 481,280 522,246 563,212 617,195 684,195 770,195 847,221 915,272 L 584,590 Z " id="glyph22"></glyph>
   <glyph unicode=" " id="glyph23"></glyph>
  </font>
</defs>
</svg>
